Banshee Complete Series S01-S04 1080p Bluray DD 5.1 x264 ~ Thị Trấn Banshee

Thị Trấn Banshee (2013 – 2016)
Banshee Complete Series S01-S04 1080p Bluray DD 5.1 x264 {Sub Việt Mux Sẵn}

Banshee là một chuỗi series gồm 4 phần, mang một chất rất riêng biệt của kênh Cinemax. Fan của thể loại hành động, hình sự chắc chắn sẽ không thể nào bỏ qua bộ phim này. Hành động, máu me, bạo lực, và sex là những gì mà loạt phim sẽ mang lại cho bạn.
Nội dung phim kể về một tên siêu trộm mãn hạn tù, anh ta lần theo dấu vết của Ann - người yêu cũ để lấy lại chỗ kim cương của 2 người. Nhưng mọi chuyện không đơn giản khi anh đến thị trấn Banshee thuộc Pennylvania. Thị trấn nhỏ này đang nằm dưới quyền kiểm soát của một tay trùm bạo lực, các hành động ngầm diễn ra khắp nơi. Trước tình hình đó, phó cảnh sát trưởng tìm kiếm người thay thế cảnh sát trưởng vừa bị giết. Tình cờ tại một quán rượu gã trộm mới ra tù lại có được phù hiệu của cảnh sát trưởng trong tay. Chứng kiến cảnh đối đầu giữa cảnh sát trưởng cùng bọn tội phạm trong quán rượu, khi viên cảnh sát ngã xuống trước mặt mình, gã trộm đã nghĩ ra một ý tưởng rất táo bạo, đó chính là đóng giả vai cảnh sát trưởng Lucas Hood, và từ đây, nhiều diễn biến nối tiếp nhau xảy ra...

General
Complete name : Banshee.S01E01.1080p.BluRay.DD5.1.x264-DON.mkv
Format : Matroska
Format version : Version 4
File size : 6.84 GiB
Duration : 59 min 34 s
Overall bit rate : 16.4 Mb/s
Encoded date : UTC 2020-02-17 06:27:27
Writing application : mkvmerge v35.0.0 ('All The Love In The World') 64-bit
Writing library : libebml v1.3.9 + libmatroska v1.5.2

Video
ID : 1
Format : AVC
Format/Info : Advanced Video Codec
Format profile : High@L4.1
Format settings : CABAC / 4 Ref Frames
Format settings, CABAC : Yes
Format settings, Reference : 4 frames
Codec ID : V_MPEG4/ISO/AVC
Duration : 59 min 33 s
Bit rate : 15.8 Mb/s
Width : 1 920 pixels
Height : 1 080 pixels
Display aspect ratio : 16:9
Frame rate mode : Constant
Frame rate : 23.976 (24000/1001) FPS
Color space : YUV
Chroma subsampling : 4:2:0
Bit depth : 8 bits
Scan type : Progressive
Bits/(Pixel*Frame) : 0.318
Stream size : 6.57 GiB (96%)
Title : Banshee.S01.1080p.BluRay.DD5.1.x264-DON
Writing library : x264 core 142 r2389 956c8d8
Language : English
Default : Yes
Forced : No
Color range : Limited
Matrix coefficients : BT.709

Audio
ID : 2
Format : AC-3
Format/Info : Audio Coding 3
Commercial name : Dolby Digital
Codec ID : A_AC3
Duration : 59 min 34 s
Bit rate mode : Constant
Bit rate : 640 kb/s
Channel(s) : 6 channels
Channel layout : L R C LFE Ls Rs
Sampling rate : 48.0 kHz
Frame rate : 31.250 FPS (1536 SPF)
Bit depth : 16 bits
Compression mode : Lossy
Stream size : 273 MiB (4%)
Language : English
Service kind : Complete Main
Default : Yes
Forced : No

Subtitle: English, English SDH, Vietnamese

imgbox

Загрузка...

Leave a Reply